Won’t Back Down 2012 – DVDRip / Español Latino

Won’t Back Down 2012 – DVDRip / Español Latino dvdrip descargar, full HD, español latino y castellano, subtitulos, descarga directa, rmvb, ver online, rmvb, mediafire, rapidshare


Título original: Won’t Back Down
País: USA
Estreno en USA: 28/09/2012
Productora: 20th Century Fox, Walden Media
Director: Daniel Barnz
Guión: Daniel Barnz, Brin Hill
Reparto: Maggie Gyllenhaal, Viola Davis, Oscar Isaac, Holly Hunter, Ving Rhames

SINOPSIS:

La historia se centra en la crisis de la educación pública en América. Gyllenhaal y Davis interpretarán a dos madres que canalizan su frustración uniendo sus fuerzas para transformar la escuela pública de una zona marginal. Isaac será un sexy profesor que finalmente intima con el personaje de Gyllenhaal.

INFORMACIÓN DE AUDIO Y VIDEO:



Código:
Video
ID : 0
Format : MPEG-4 Visual
Format profile : Advanced Simple@L5
Format settings, BVOP : 2
Format settings, QPel : No
Format settings, GMC : No warppoints
Format settings, Matrix : Default (H.263)
Muxing mode : Packed bitstream
Codec ID : XVID
Codec ID/Hint : XviD
Duration : 2h 1mn
Bit rate : 693 Kbps
Width : 640 pixels
Height : 272 pixels
Display aspect ratio : 2.35:1
Frame rate : 23.976 fps
Color space : YUV
Chroma subsampling : 4:2:0
Bit depth : 8 bits
Scan type : Progressive
Compression mode : Lossy
Bits/(Pixel*Frame) : 0.166
Stream size : 600 MiB (85%)
Writing library : XviD 1.2.1 (UTC 2008-12-04)

Audio
ID : 1
Format : MPEG Audio
Format version : Version 1
Format profile : Layer 3
Codec ID : 55
Codec ID/Hint : MP3
Duration : 2h 1mn
Bit rate mode : Constant
Bit rate : 112 Kbps
Channel(s) : 2 channels
Sampling rate : 44.1 KHz
Compression mode : Lossy
Stream size : 97.0 MiB (14%)
Alignment : Split accross interleaves
Interleave, duration : 42 ms (1.00 video frame)
Interleave, preload duration : 500 ms
Writing library : LAME3.98r
Encoding settings : -m s -V 4 -q 2 -lowpass 15.6 -b 112

SCREENSHOTS:





DESCARGA:

NpASpLat.avi download for free on file share ***********.net

Si el link cae, me avisan y lo vuelvo a subir.
Saludos, compas. Won’t Back Down 2012 – DVDRip / Español Latino dvdrip descargar, full HD, español latino y castellano, subtitulos, descarga directa, rmvb, ver online, rmvb, mediafire, rapidshare

    , back en español gratis completas, ver pelicula turboen español online gratis, ver pelicula mannequin gratis en español latino, ver pelicula completa wont back down, ver inuyasha peliculas 3 completas y gratis, peliculas online gratis completas en español mannequin